#TITLE:Guillaume Tell;
#SUBTITLE:(FFR Edit);
#ARTIST:MC F 40 (Rossini);
#TITLETRANSLIT:;
#SUBTITLETRANSLIT:;
#ARTISTTRANSLIT:;
#CREDIT:;
#BANNER:guillaumetellbn.bmp;
#BACKGROUND:guillaumetellbg.bmp;
#LYRICSPATH:;
#CDTITLE:ZOM_CD.bmp;
#MUSIC:Guillaume_Tell.mp3;
#OFFSET:-3.620;
#SAMPLESTART:28.760;
#SAMPLELENGTH:17.960;
#SELECTABLE:YES;
#BPMS:0.000=180.000;
#STOPS:;
#BGCHANGES:;
// cache tags:
#FIRSTBEAT:8.000;
#LASTBEAT:330.000;
#SONGFILENAME:Songs/nhac/Guillaume Tell (FFR Edit)/Guillaume_Tell.sm;
#HASMUSIC:1;
#HASBANNER:1;
#MUSICLENGTH:114.912;
// end cache tags

//---------------dance-single - ----------------
#NOTES:
     dance-single:
     :
     Challenge:
     13:
     1.000,1.000,1.000,0.104,1.000,900.000,179.000,12.000,0.000,0.000:
0000
0000
0000
0000
,
0000
0000
0000
0000
,
1001
0100
0010
0001
0100
0001
1000
0100
,
1000
0010
0100
0001
1000
0100
1000
0001
,
0100
0010
1000
0100
1000
0001
0010
0001
,
0100
0010
1000
0100
0010
0001
0100
0010
,
1001
0000
0000
0000
0000
0000
0001
0001
0001
0000
0000
0000
0000
0000
0001
0001
,
0001
0100
0010
1000
1000
0010
0100
0001
,
0001
0010
0100
1000
1000
0100
0010
0001
,
0001
1000
0010
0100
0001
1000
0010
0100
,
1001
0000
0000
0000
0000
0000
1001
1001
1001
0000
0000
0000
0000
0000
1001
1001
,
1001
1010
1100
1010
1001
0011
0101
1001
,
1001
1010
1100
1010
1001
0011
0101
1001
,
0110
0000
0000
0000
0000
0000
0110
0110
0110
0000
0000
0000
0000
0000
0110
0110
,
0110
0000
1000
0000
0100
0000
0011
0001
0011
0000
1000
0000
0100
0000
1010
0010
,
1010
0000
0101
0001
0101
0000
0110
0100
0110
0000
1001
0001
1001
0000
1000
0000
,
0100
0000
0100
0100
0100
0000
0100
0000
0010
0000
0010
0010
0010
0000
0010
0000
,
2001
0000
0001
0001
0001
0000
0001
0000
0001
0000
0001
0001
0001
0000
0001
0000
,
0002
0000
0000
0000
0000
0000
0000
0000
0000
0000
0000
0000
3003
0000
1000
1000
,
1000
0000
1000
1000
1000
0000
1000
1000
1000
0000
0100
0000
0010
0000
0001
0001
,
0001
0000
0001
0001
0001
0000
0001
0001
0001
0000
0010
0000
0100
0000
1000
1000
,
1000
0000
1000
1000
1000
0000
1000
1000
1000
0000
0100
0000
0010
0000
0001
1000
,
0020
0000
0000
0000
0030
0010
0100
0001
1001
0000
0110
0000
1001
0000
0001
0001
,
0001
0000
0001
0001
0001
0000
0001
0001
0001
0000
0100
0000
0010
0000
1000
1000
,
1000
0000
1000
1000
1000
0000
1000
1000
1000
0000
0010
0000
0100
0000
0001
0001
,
0001
0000
0001
0001
0001
0000
0001
0001
0001
0000
0100
0000
0010
0000
1000
0001
,
0020
0000
0000
0000
0030
0010
0100
1000
1001
0000
0110
0000
1001
0000
0010
0010
,
1010
0000
0010
0010
1010
0000
0010
0010
1010
0000
0011
0000
1010
0000
0011
0000
,
1010
0000
0011
0000
1010
0000
1100
0000
0101
0000
1100
0000
1001
0000
0100
0100
,
0101
0000
0100
0100
0101
0000
0100
0100
0101
0000
1100
0000
0101
0000
1100
0000
,
0101
0000
1100
0000
1010
0000
0101
0000
1001
0000
0110
0000
1001
0000
0001
0001
,
1001
0000
1000
1000
1001
0000
0001
0001
1001
0000
0110
0000
1001
0000
0110
0000
,
1001
0000
0110
0000
1010
0000
0101
0000
1001
0000
0110
0000
1001
0000
0010
0010
,
0110
0000
0100
0100
0110
0000
0010
0010
0110
0000
1001
0000
0110
0000
1001
0000
,
0110
0000
1001
0000
0011
0000
1100
0000
1000
0100
0010
0100
1000
0100
0010
0100
,
1000
0100
0010
0100
1000
0100
0010
0100
1000
0100
0010
0100
1000
0100
0010
0100
,
1000
0100
0010
0100
1000
0100
0010
0100
1000
0100
0010
0100
1000
0100
0110
0000
,
1001
0001
1001
1000
,
1001
0000
0000
0000
0001
0000
0000
0000
1001
0000
0000
0000
0110
0000
1000
1000
,
1000
0000
1000
1000
1000
0000
1000
1000
1000
0000
0100
0000
0010
0000
0001
0001
,
0001
0000
0001
0001
0001
0000
0001
0001
0001
0000
0010
0000
0100
0000
1000
1000
,
1000
0000
1000
1000
1000
0000
1000
1000
1000
0000
0100
0000
0010
0000
0001
1000
,
0020
0000
0000
0000
0030
0010
0100
0001
1001
0000
0110
0000
1001
0000
0001
0001
,
0001
0000
0001
0001
0001
0000
0001
0001
0001
0000
0100
0000
0010
0000
1000
1000
,
1000
0000
1000
1000
1000
0000
1000
1000
1000
0000
0010
0000
0100
0000
0001
0001
,
0001
0000
0001
0001
0001
0000
0001
0001
0001
0000
0100
0000
0010
0000
1000
0001
,
0020
0000
0000
0000
0030
0010
0001
1000
1001
0000
0110
0000
1001
0000
1000
0100
,
0010
0000
0010
0010
0010
0000
0010
0000
0002
0000
0000
0000
0003
0000
0001
0001
,
0010
0010
0100
0100
1000
1000
0100
0100
0010
0001
0010
0001
0010
0001
0100
0010
,
1000
0100
1000
0100
1000
0100
0010
0001
0100
0010
0100
0010
0100
0010
1000
0001
,
0010
0100
0010
0100
0010
0100
0010
0100
1000
0001
0010
0100
1000
0100
0010
0001
,
1000
0000
1000
1000
1000
0000
1000
0000
0002
0000
0000
0000
0003
0000
1000
1000
,
0010
0010
0100
0100
0001
0001
0100
0100
0010
1000
0010
1000
0010
1000
0100
0010
,
0001
0100
0001
0100
0001
0100
0010
1000
0100
0010
0100
0010
0100
0010
0001
0100
,
0010
1000
0010
1000
0010
1000
0100
0010
0011
0000
1100
0000
0011
0000
0000
0000
,
1000
0100
0010
0001
1000
0100
0010
0001
1000
0100
0010
0001
1000
0100
0010
0001
,
0010
0010
0010
0010
0010
0010
0010
0010
0010
0010
0010
0010
0010
0010
0010
0010
,
0001
0100
0010
1000
0001
0100
0010
1000
0001
0100
0010
1000
0001
0100
0010
1000
,
0010
0010
0010
0010
0010
0010
0010
0010
0010
0010
0010
0010
0010
0010
0010
0010
,
1010
1000
1000
1000
1100
0100
0100
0100
0110
0010
0010
0010
0011
0001
0001
0001
,
1001
1000
1000
1000
1010
0010
0010
0010
0110
0100
0100
0100
0101
0001
0001
0001
,
1001
1000
1001
1000
1001
1000
1001
1000
1001
1000
0100
0100
0010
0010
0001
0001
,
1001
0001
1001
0001
1001
0001
1001
0001
1001
0001
0100
0100
0010
0010
1000
1000
,
0110
0010
0110
0010
0110
0010
0110
0010
0110
0100
0001
0001
1000
1000
0001
0001
,
0110
0100
0110
0100
0110
0100
0110
0100
0110
0010
1000
1000
0001
0001
1000
1000
,
0001
0001
0010
0010
0100
0100
1000
1000
0001
0001
0100
0100
0010
0010
1000
1000
,
0001
0001
1000
1000
0010
0010
0100
0100
0001
0001
0010
0010
0100
0100
0010
0010
,
0001
1000
0001
1000
0001
0000
1001
1001
1001
0000
1001
1001
1001
0000
1001
1001
,
1001
0000
0110
0000
1001
0000
0110
0110
0110
0000
0110
0110
0110
0000
0110
0110
,
0110
1010
0101
0000
1001
1100
0011
0000
,
1001
0110
1001
0000
0000
0000
0000
0000
,
1000
0100
0010
0001
1000
0100
0010
0001
1000
0100
0010
0001
1000
0100
0010
0001
,
1000
0001
0010
0001
1000
0001
0010
0001
1000
0001
0010
0001
1000
0001
0010
0001
,
1000
0001
0010
0001
1000
0001
0010
0001
1000
0001
0010
0001
1000
0001
0010
0001
,
1000
0000
0001
0001
0001
0001
0001
0001
0001
0000
0010
0010
0010
0010
0010
0010
,
0010
0000
0100
0100
0100
0100
0100
0100
0100
0000
1000
1000
1000
1000
1000
1000
,
1000
0000
0010
0010
0010
0010
0010
0010
0010
0000
0100
0100
0100
0100
0100
0100
,
0100
0000
0001
0001
0001
0001
0001
0001
0001
0000
1000
1000
1000
1000
1000
1000
,
0010
0000
0100
0100
1000
1000
0100
0100
0010
0010
0100
0100
0001
0001
0100
0100
,
0020
0030
1000
1000
0100
0100
1000
1000
0010
0010
1000
1000
0001
0001
1000
1000
,
0020
0030
0000
0000
0000
0000
0110
0110
0110
0000
0110
0000
0110
0000
0110
0000
,
0110
0000
0000
0000
0000
0000
0000
0110
0110
0000
0000
0000
0000
0000
0000
0110
,
2002
0000
3003
0000
;

//---------------dance-single - ----------------
#NOTES:
     dance-single:
     :
     Hard:
     12:
     1.000,1.000,1.000,0.104,1.000,851.000,154.000,12.000,0.000,0.000:
0000
0000
0000
0000
,
0000
0000
0000
0000
,
1001
0100
0010
0001
0100
0001
1000
0100
,
1000
0010
0100
0001
1000
0100
1000
0001
,
0100
0010
1000
0100
1000
0001
0010
0001
,
0100
0010
1000
0100
0010
0001
0100
0010
,
1001
0000
0000
0000
0000
0000
0001
0001
0001
0000
0000
0000
0000
0000
1000
1000
,
1000
0100
0010
0001
0001
0010
0100
1000
,
1000
0010
0100
0001
0001
0100
0010
1000
,
1000
0001
0010
0100
1000
0001
0010
0100
,
1001
0000
0000
0000
0000
0000
0110
1001
0110
0000
0000
0000
0000
0000
1001
0110
,
1001
1010
1100
1010
1001
0011
0101
1001
,
1001
1010
1100
1010
1001
0011
0101
1001
,
0110
0000
0000
0000
0000
0000
0110
1001
0110
0000
0000
0000
0000
0000
0110
1001
,
0110
0000
1001
0000
1100
0000
0010
0001
0010
0000
1100
0000
0011
0000
0100
1000
,
0100
0000
0010
0001
0010
0000
1100
0000
1001
0000
0010
0100
0010
0000
1001
0000
,
0110
0000
0010
0100
0010
0000
1001
0000
0110
0000
0010
0100
0010
0000
0110
0000
,
1100
0000
0010
0001
0010
0000
1100
0000
0011
0000
0100
1000
0100
0000
0110
0000
,
2002
0000
0000
0000
0000
0000
0000
0000
0000
0000
0000
3000
0003
0000
1000
0001
,
1000
0000
1000
0001
1000
0000
1000
0001
1000
0000
0100
0000
0010
0000
0001
1000
,
0001
0000
0001
1000
0001
0000
0001
1000
0001
0000
0010
0000
0100
0000
1000
0001
,
1000
0000
1000
0001
1000
0000
1000
0001
1000
0000
0100
0000
0010
0000
0001
1000
,
0020
0000
0000
0000
0030
0010
0100
0001
1001
0000
0110
0000
1001
0000
0001
0100
,
0001
0000
0001
0100
0001
0000
0001
0100
0001
0000
0100
0000
0010
0000
1000
0100
,
1000
0000
1000
0100
1000
0000
1000
0100
1000
0000
0010
0000
0100
0000
0001
0100
,
0001
0000
0001
0100
0001
0000
0001
0100
0001
0000
0100
0000
0010
0000
1000
0001
,
0020
0000
0000
0000
0030
0010
0100
1000
1001
0000
0110
0000
1001
0000
0010
1000
,
0010
0000
0010
1000
0010
0000
0010
1000
0010
0000
0011
0000
1010
0000
0011
0000
,
1010
0000
0011
0000
1010
0000
1100
0000
0101
0000
1100
0000
1001
0000
0100
0001
,
0100
0000
0100
0001
0100
0000
0100
0001
0100
0000
1100
0000
0101
0000
1100
0000
,
0101
0000
1100
0000
1010
0000
0101
0000
1001
0000
0110
0000
1001
0000
0001
1000
,
0001
0000
1000
0001
1000
0000
0001
1000
0001
0000
0110
0000
1001
0000
0110
0000
,
1001
0000
0110
0000
1010
0000
0101
0000
1001
0000
0110
0000
1001
0000
0010
0100
,
0010
0000
0100
0010
0100
0000
0010
0100
0010
0000
1001
0000
0110
0000
1001
0000
,
0110
0000
1001
0000
0011
0000
1100
0000
1000
0100
0010
0100
1000
0100
0010
0100
,
1000
0100
0010
0100
1000
0100
0010
0100
1000
0100
0010
0100
1000
0100
0010
0100
,
1000
0100
0010
0100
1000
0100
0010
0100
1000
0100
0010
0100
1000
0100
0110
0000
,
1001
0001
1001
1000
,
1001
0000
0000
0000
0001
0000
0000
0000
1001
0000
0000
0000
0110
0000
1000
0010
,
1000
0000
1000
0100
1000
0000
1000
0010
1000
0000
0100
0000
0010
0000
0001
0100
,
0001
0000
0001
0010
0001
0000
0001
0100
0001
0000
0010
0000
0100
0000
1000
0010
,
1000
0000
1000
0100
1000
0000
1000
0010
1000
0000
0100
0000
0010
0000
0001
1000
,
0020
0000
0000
0000
0030
0010
0100
0001
1001
0000
0110
0000
1001
0000
0001
0010
,
0001
0000
0001
0100
0001
0000
0001
1000
0001
0000
0100
0000
0010
0000
1000
0100
,
1000
0000
1000
0010
1000
0000
1000
0001
1000
0000
0010
0000
0100
0000
0001
0010
,
0001
0000
0001
0100
0001
0000
0001
1000
0001
0000
0100
0000
0010
0000
1000
0001
,
0020
0000
0000
0000
0030
0010
0001
1000
1001
0000
0110
0000
1001
0000
1000
0100
,
0010
0000
0010
0010
0010
0000
0010
0000
0002
0000
0000
0000
0003
0000
1000
0100
,
0010
0001
0010
0001
0010
0001
0010
0001
1000
0100
1000
0100
1000
0100
1000
0100
,
0010
0100
0010
0100
0010
0100
1000
0001
0100
0010
0100
0010
0100
0010
1000
0001
,
0010
0100
0010
0100
0010
0100
0010
0100
1000
0001
0010
0100
1000
0100
0010
0001
,
1000
0000
1000
1000
1000
0000
1000
0000
0002
0000
0000
0000
0003
0000
0001
0100
,
0010
1000
0010
1000
0010
1000
0010
1000
0100
0010
0100
0010
0100
0010
0001
1000
,
0010
0100
0010
0100
0010
0100
0001
1000
0001
0010
0001
0010
0001
0010
0100
1000
,
0010
0100
0010
0100
0010
0100
0001
0010
0011
0000
1100
0000
0011
0000
0000
0000
,
1000
0100
0010
0001
1000
0100
0010
0001
1000
0100
0010
0001
1000
0100
0010
0001
,
0010
0100
0010
0100
0010
0100
0010
0100
0010
0100
0010
0100
0010
0100
0010
0100
,
1000
0010
0100
0001
1000
0010
0100
0001
1000
0010
0100
0001
1000
0010
0100
0001
,
0100
0010
0100
0010
0100
0010
0100
0010
0100
0010
0100
0010
0100
0010
0100
0010
,
1010
1000
1100
0100
0110
0010
0011
0001
,
1001
1000
1010
0010
0110
0100
0101
0001
,
1001
1001
1001
1001
1001
0100
0010
0001
,
0110
0110
0110
0110
0110
0001
0010
0100
,
1001
1001
1001
1001
1001
0100
0010
1000
,
0110
0110
0110
0110
0110
1000
0100
0010
,
0001
0010
0001
0010
0100
1000
0100
1000
0001
0100
0001
0100
0010
1000
0010
1000
,
0001
1000
0001
1000
0010
0100
0010
0100
0001
0010
0001
0010
0100
0010
0100
0010
,
0001
1000
0001
1000
0001
0000
0001
1000
0001
0000
1000
0001
1000
0000
0001
1000
,
0001
0000
0110
0000
1001
0000
1000
0100
0010
0000
0001
0100
0010
0000
1000
0100
,
0001
1100
0011
0000
1001
0101
1010
0000
,
1001
0110
1001
0000
0000
0000
0000
0000
,
1000
0100
0010
0001
1000
0100
0010
0001
1000
0100
0010
0001
1000
0100
0010
0001
,
1000
0001
0010
0001
1000
0001
0010
0001
1000
0001
0010
0001
1000
0001
0010
0001
,
1000
0001
0010
0001
1000
0001
0010
0001
1000
0001
0010
0001
1000
0001
0010
0001
,
1000
0000
0001
1000
0001
1000
0001
1000
0001
0000
0010
0100
0010
0100
0010
0100
,
0010
0000
0100
1000
0100
1000
0100
1000
0100
0000
1000
0010
1000
0010
1000
0010
,
1000
0000
0010
0100
0010
0100
0010
0100
0010
0000
0100
0001
0100
0001
0100
0001
,
0100
0000
0001
0010
0001
0010
0001
0010
0001
0000
1000
0010
1000
0010
1000
0010
,
1000
0000
1000
0010
0100
0010
1000
0100
0010
0100
1000
0010
0001
0010
1000
0100
,
0020
0030
0001
0100
0010
0100
0001
0010
0100
0010
0001
0100
1000
0100
0001
0010
,
0200
0300
0000
0000
0000
0000
0110
1001
0110
0000
0110
0000
0110
0000
0110
0000
,
0110
0000
0000
0000
0000
0000
0000
0110
0110
0000
0000
0000
0000
0000
0000
0110
,
2002
0000
3003
0000
;

//---------------dance-single - ----------------
#NOTES:
     dance-single:
     :
     Medium:
     10:
     1.000,1.000,1.000,0.104,0.862,786.000,172.000,12.000,0.000,0.000:
0000
0000
0000
0000
,
0000
0000
0000
0000
,
1001
0100
0010
0001
0100
0001
1000
0100
,
1000
0010
0100
0001
1000
0100
1000
0001
,
0100
0010
1000
0100
1000
0001
0010
0001
,
0100
0010
1000
0100
0010
0001
0100
0010
,
1001
0000
0000
0000
0000
0000
0001
0010
0001
0000
0000
0000
0000
0000
1000
0100
,
1000
0100
0010
0001
0001
0010
0100
1000
,
1000
0010
0100
0001
0001
0100
0010
1000
,
1000
0001
0010
0100
1000
0001
0010
0100
,
1001
0000
0000
0000
0000
0000
0110
1001
0110
0000
0000
0000
0000
0000
1001
0110
,
1001
1010
1010
0011
0011
0110
0110
0101
,
0101
1001
1001
1100
1100
0011
0011
0110
,
0110
0000
0000
0000
0000
0000
0110
1001
0110
0000
0000
0000
0000
0000
0110
1001
,
0110
0000
1100
0000
1100
0000
0010
0001
0010
0000
0011
0000
0011
0000
0100
1000
,
0100
0000
0010
0001
0010
0000
1100
0000
1100
0000
0010
0100
0010
0000
1001
0000
,
1001
0000
0010
0100
0010
0000
0110
0000
0110
0000
0010
0100
0010
0000
1010
0000
,
1010
0000
0010
0001
0010
0000
0101
0000
0101
0000
0100
1000
0100
0000
0110
0000
,
2002
0000
0000
0000
0000
0000
0000
0000
0000
0000
0000
3000
0003
0000
1000
0001
,
1000
0000
0001
1000
0001
0000
1000
0001
1000
0000
0100
0000
0010
0000
0001
1000
,
0001
0000
1000
0001
1000
0000
0001
1000
0001
0000
0010
0000
0100
0000
1000
0001
,
1000
0000
0001
1000
0001
0000
1000
0001
1000
0000
0100
0000
0010
0000
0001
0000
,
0020
0000
0000
0000
0030
0010
0100
0000
1001
0000
0110
0000
1001
0000
0001
0100
,
0001
0000
0100
0001
0100
0000
0001
0100
0001
0000
0100
0000
0010
0000
1000
0100
,
1000
0000
0100
1000
0100
0000
1000
0100
1000
0000
0010
0000
0100
0000
0001
0100
,
0001
0000
0100
0001
0100
0000
0001
0100
0001
0000
0100
0000
0010
0000
1000
0000
,
0020
0000
0000
0000
0030
0010
0100
0000
1001
0000
0110
0000
1001
0000
0010
1000
,
0010
0000
1000
0010
1000
0000
0010
1000
0010
0000
0011
0000
0011
0000
0011
0000
,
0011
0000
0011
0000
0011
0000
1100
0000
1100
0000
1100
0000
1100
0000
0100
0001
,
0100
0000
0001
0100
0001
0000
0100
0001
0100
0000
1100
0000
1100
0000
1100
0000
,
1100
0000
1100
0000
1100
0000
0011
0000
0011
0000
0011
0000
0011
0000
0001
1000
,
0001
0000
1000
0001
1000
0000
0001
1000
0001
0000
0110
0000
0110
0000
0110
0000
,
0110
0000
0110
0000
0110
0000
1001
0000
1001
0000
1001
0000
1001
0000
0010
0100
,
0010
0000
0100
0010
0100
0000
0010
0100
0010
0000
1001
0000
1001
0000
1001
0000
,
1001
0000
1001
0000
0110
0000
0110
0000
1000
0100
0010
0000
1000
0100
0010
0000
,
1000
0100
0010
0000
1000
0100
0010
0000
1000
0100
0010
0000
1000
0100
0010
0000
,
1000
0100
0010
0000
1000
0100
0010
0000
1000
0100
0010
0000
1000
0100
0110
0000
,
1001
0001
1001
1000
,
1001
0000
0000
0000
0001
0000
0000
0000
1001
0000
0000
0000
0110
0000
1000
0010
,
1000
0000
0100
1000
0100
0000
1000
0010
1000
0000
0100
0000
0010
0000
0001
0100
,
0001
0000
0010
0001
0010
0000
0001
0100
0001
0000
0010
0000
0100
0000
1000
0010
,
1000
0000
0100
1000
0100
0000
1000
0010
1000
0000
0100
0000
0010
0000
0001
0000
,
0020
0000
0000
0000
0030
0010
0100
0000
1001
0000
0110
0000
1001
0000
0001
0010
,
0001
0000
0100
0001
0100
0000
0001
1000
0001
0000
0100
0000
0010
0000
1000
0100
,
1000
0000
0010
1000
0010
0000
1000
0001
1000
0000
0010
0000
0100
0000
0001
0010
,
0001
0000
0100
0001
0100
0000
0001
1000
0001
0000
0100
0000
0010
0000
1000
0000
,
0020
0000
0000
0000
0030
0010
0001
0000
1001
0000
0110
0000
1001
0000
1000
0100
,
0010
0000
0010
0001
0010
0000
0010
0000
0002
0000
0000
0000
0003
0000
1000
0100
,
0010
0001
0010
0000
0010
0001
0010
0000
1000
0100
1000
0000
1000
0100
1000
0000
,
0010
0100
0010
0000
0010
0100
1000
0000
0100
0010
0100
0000
0100
0010
1000
0000
,
0010
0100
0010
0000
0010
0100
0010
0000
1000
0001
0010
0100
1000
0100
0010
0001
,
1000
0000
1000
0001
1000
0000
1000
0000
0002
0000
0000
0000
0003
0000
0001
0100
,
0010
1000
0010
0000
0010
1000
0010
0000
0100
0010
0100
0000
0100
0010
0001
0000
,
0010
0100
0010
0000
0010
0100
0001
0000
0001
0010
0001
0000
0001
0010
0100
0000
,
0010
0100
0010
0000
0010
0100
0001
0000
0011
0000
1100
0000
0011
0000
0000
0000
,
1000
0100
0010
0001
1000
0100
0010
0001
1000
0100
0010
0001
1000
0100
0010
0001
,
0010
0100
0010
0000
0010
0100
0010
0000
0010
0100
0010
0000
0010
0100
0010
0000
,
1000
0010
0100
0001
1000
0010
0100
0001
1000
0010
0100
0001
1000
0010
0100
0001
,
0100
0010
0100
0000
0100
0010
0100
0000
0100
0010
0100
0000
0100
0010
0100
0000
,
1010
1010
1100
1100
0110
0110
0011
0011
,
1001
1001
1010
1010
0110
0110
0101
0101
,
1001
1001
1001
1001
1001
0100
0010
0001
,
0110
0110
0110
0110
0110
0001
0010
0100
,
1001
1001
1001
1001
1001
0100
0010
1000
,
0110
0110
0110
0110
0110
1000
0100
0010
,
0001
0010
0001
0000
0100
1000
0100
0000
0001
0100
0001
0000
0010
1000
0010
0000
,
0001
1000
0001
0000
0010
0100
0010
0000
0001
0010
0001
0000
0100
0010
0100
0000
,
0001
1000
0001
1000
0001
0000
1001
0110
1001
0000
0110
1001
0110
0000
1001
0110
,
1001
0000
0110
0000
1001
0000
1000
0100
0010
0000
0001
0100
0010
0000
1000
0100
,
0011
0011
1100
0000
0101
0101
1010
0000
,
1001
0110
1001
0000
0000
0000
0000
0000
,
1000
0100
0010
0001
1000
0100
0010
0001
1000
0100
0010
0001
1000
0100
0010
0001
,
1000
0001
0010
0000
1000
0001
0010
0000
1000
0001
0010
0000
1000
0001
0010
0000
,
1000
0001
0010
0000
1000
0001
0010
0000
1000
0001
0010
0000
1000
0001
0010
0000
,
1000
0000
0001
1000
0001
1000
0001
1000
0001
0000
0010
0100
0010
0100
0010
0100
,
0010
0000
0100
1000
0100
1000
0100
1000
0100
0000
1000
0010
1000
0010
1000
0010
,
1000
0000
0010
0100
0010
0100
0010
0100
0010
0000
0100
0001
0100
0001
0100
0001
,
0100
0000
0001
0010
0001
0010
0001
0010
0001
0000
1000
0010
1000
0010
1000
0010
,
1000
0000
1000
0010
0100
0010
1000
0000
0010
0100
1000
0010
0001
0000
1000
0100
,
0020
0030
0001
0100
0010
0100
0001
0000
0100
0010
0001
0100
1000
0000
0001
0010
,
0200
0300
0000
0000
0000
0000
0110
1001
0110
0000
0110
0000
0110
0000
0110
0000
,
0110
0000
0000
0000
0000
0000
0000
1001
0110
0000
0000
0000
0000
0000
0000
0110
,
2002
0000
3003
0000
;

//---------------dance-single - ----------------
#NOTES:
     dance-single:
     :
     Easy:
     9:
     1.000,1.000,1.000,0.104,0.792,770.000,125.000,12.000,0.000,0.000:
0000
0000
0000
0000
,
0000
0000
0000
0000
,
1001
0100
0010
0001
0100
0001
1000
0100
,
1000
0010
0100
0001
1000
0100
1000
0001
,
0100
0010
1000
0100
1000
0001
0010
0001
,
0100
0010
1000
0100
0010
0001
0100
0010
,
1001
0000
0000
0000
0000
0000
0001
0010
0001
0000
0000
0000
0000
0000
1000
0100
,
1000
0100
0010
0001
0001
0010
0100
1000
,
1000
0010
0100
0001
0001
0100
0010
1000
,
1000
0001
0010
0100
1000
0001
0010
0100
,
1001
0000
0000
0000
0000
0000
0100
1000
0110
0000
0000
0000
0000
0000
1000
0010
,
1001
1000
1000
0001
0001
0010
0010
0100
,
0100
0001
0001
1000
1000
0010
0010
0100
,
0100
0000
0000
0000
0000
0000
0010
0001
0110
0000
0000
0000
0000
0000
0100
1000
,
0110
0000
1100
0000
1100
0000
0010
0001
0010
0000
0011
0000
0011
0000
0100
1000
,
0100
0000
0010
0001
0010
0000
1100
0000
1100
0000
0010
0100
0010
0000
1001
0000
,
1001
0000
0010
0100
0010
0000
0110
0000
0110
0000
0010
0100
0010
0000
1010
0000
,
1010
0000
0010
0001
0010
0000
0101
0000
0101
0000
0100
1000
0100
0000
0110
0000
,
2002
0000
0000
0000
0000
0000
0000
0000
0000
0000
0000
3000
0003
0000
1000
0100
,
0001
0000
1000
0100
0001
0000
1000
0100
0001
0000
0100
0000
0010
0000
0001
0010
,
1000
0000
0001
0010
1000
0000
0001
0010
1000
0000
0010
0000
0100
0000
1000
0010
,
0001
0000
1000
0010
0001
0000
1000
0010
0001
0000
0100
0000
0010
0000
0001
0000
,
0020
0000
0000
0000
0030
0010
0100
0000
1001
0000
0110
0000
1001
0000
0001
0010
,
0100
0000
0001
0010
0100
0000
0001
0010
0100
0000
0100
0000
0010
0000
1000
0010
,
0100
0000
1000
0010
0100
0000
1000
0010
0100
0000
0010
0000
0100
0000
0001
1000
,
0100
0000
0001
1000
0100
0000
0001
1000
0100
0000
0100
0000
0010
0000
1000
0000
,
0020
0000
0000
0000
0030
0010
0100
0000
1001
0000
0110
0000
1001
0000
0010
0100
,
1000
0000
0010
0100
1000
0000
0010
0100
1000
0000
0011
0000
0011
0000
0011
0000
,
0011
0000
0011
0000
0011
0000
1100
0000
1100
0000
1100
0000
1100
0000
0100
0010
,
0001
0000
0100
0010
0001
0000
0100
0010
0001
0000
1100
0000
1100
0000
1100
0000
,
1100
0000
1100
0000
1100
0000
0011
0000
0011
0000
0011
0000
0011
0000
0001
0010
,
1000
0000
0001
1000
0010
0000
0001
0010
1000
0000
0110
0000
0110
0000
0110
0000
,
0110
0000
0110
0000
0110
0000
1001
0000
1001
0000
1001
0000
1001
0000
0010
1000
,
0100
0000
0010
0100
1000
0000
0010
1000
0100
0000
1001
0000
1001
0000
1001
0000
,
1001
0000
1001
0000
0110
0000
0110
0000
1000
0100
0010
0000
1000
0100
0010
0000
,
1000
0100
0010
0000
1000
0100
0010
0000
1000
0100
0010
0000
1000
0100
0010
0000
,
1000
0100
0010
0000
1000
0100
0010
0000
1000
0100
0010
0000
1000
0100
0010
0000
,
1001
0001
1001
1000
,
1001
0000
0000
0000
0001
0000
0000
0000
1001
0000
0000
0000
0110
0000
1000
0100
,
0010
0000
1000
0010
0100
0000
1000
0100
0010
0000
0100
0000
0010
0000
0001
0010
,
0100
0000
0001
0100
0010
0000
0001
0010
0100
0000
0010
0000
0100
0000
1000
0100
,
0010
0000
1000
0010
0100
0000
1000
0100
0010
0000
0100
0000
0010
0000
0001
0000
,
0020
0000
0000
0000
0030
0010
0100
0000
1001
0000
0110
0000
1001
0000
0001
0100
,
0010
0000
0100
0010
0001
0000
0001
0010
1000
0000
0100
0000
0010
0000
1000
0010
,
0100
0000
1000
0100
0010
0000
1000
0100
0001
0000
0010
0000
0100
0000
0001
0100
,
0010
0000
0100
0010
0001
0000
0001
0100
1000
0000
0100
0000
0010
0000
1000
0000
,
0020
0000
0000
0000
0030
0010
0001
0000
1001
0000
0110
0000
1001
0000
1000
0100
,
0010
0000
0010
0001
0010
0000
0010
0000
0002
0000
0000
0000
0003
0000
1000
0100
,
0010
0001
0010
0000
0010
0001
0010
0000
1000
0100
1000
0000
1000
0100
1000
0000
,
0010
0100
0010
0000
0010
0100
0010
0000
0100
0010
0100
0000
0100
0010
0100
0000
,
0010
0100
0010
0000
0010
0100
0010
0000
1000
0001
0010
0100
1000
0100
0010
0001
,
1000
0000
1000
0001
1000
0000
1000
0000
0002
0000
0000
0000
0003
0000
0001
0100
,
0010
1000
0010
0000
0010
1000
0010
0000
0100
0010
0100
0000
0100
0010
0100
0000
,
0010
0100
0010
0000
0010
0100
0010
0000
0001
0010
0001
0000
0001
0010
0001
0000
,
0010
0100
0010
0000
0010
0100
0010
0000
0011
0000
1100
0000
0011
0000
0000
0000
,
1000
0100
0010
0000
1000
0100
0010
0000
1000
0100
0010
0000
1000
0100
0010
0000
,
0010
0100
0010
0000
0010
0100
0010
0000
0010
0100
0010
0000
0010
0100
0010
0000
,
0001
0100
0010
0000
0001
0100
0010
0000
0001
0100
0010
0000
0001
0100
0010
0000
,
0100
0010
0100
0000
0100
0010
0100
0000
0100
0010
0100
0000
0100
0010
0100
0000
,
1000
1000
0100
0100
0010
0010
0001
0001
,
1000
1000
0010
0010
0100
0100
0001
0001
,
1001
1001
1001
1001
1001
0100
0010
0001
,
0110
0110
0110
0110
0110
0001
0010
0100
,
1001
1001
1001
1001
1001
0100
0010
1000
,
0110
0110
0110
0110
0110
1000
0100
0010
,
0001
0010
0001
0000
0100
1000
0100
0000
0001
0100
0001
0000
0010
1000
0010
0000
,
0001
1000
0001
0000
0010
0100
0010
0000
0001
0010
0001
0000
0100
0010
0100
0000
,
0001
1000
0001
1000
0001
0000
1000
0010
1001
0000
0100
1000
0110
0000
0001
0100
,
1001
0000
0110
0000
1001
0000
1000
0100
0010
0000
0001
0100
0010
0000
1000
0100
,
0011
0011
0011
0000
0101
0101
0101
0000
,
1001
0110
1001
0000
0000
0000
0000
0000
,
1000
0100
0010
0000
1000
0100
0010
0000
1000
0100
0010
0000
1000
0100
0010
0000
,
1000
0001
0010
0000
1000
0001
0010
0000
1000
0001
0010
0000
1000
0001
0010
0000
,
1000
0001
0010
0000
1000
0001
0010
0000
1000
0001
0010
0000
1000
0001
0010
0000
,
1000
0000
0001
1000
0001
1000
0001
1000
0001
0000
0010
0100
0010
0100
0010
0100
,
0010
0000
0100
1000
0100
1000
0100
1000
0100
0000
1000
0010
1000
0010
1000
0010
,
1000
0000
0010
0100
0010
0100
0010
0100
0010
0000
0100
0001
0100
0001
0100
0001
,
0100
0000
0001
0010
0001
0010
0001
0010
0001
0000
1000
0010
1000
0010
1000
0010
,
1000
0000
1000
0010
0100
0000
1000
0000
0010
0100
1000
0000
0001
0000
1000
0100
,
0020
0030
0001
0100
0010
0000
0001
0000
0100
0010
0001
0000
1000
0000
0001
0010
,
0200
0300
0000
0000
0000
0000
0110
1001
0110
0000
0110
0000
0110
0000
0110
0000
,
0110
0000
0000
0000
0000
0000
0000
1001
0110
0000
0000
0000
0000
0000
0000
0110
,
2002
0000
3003
0000
;
